Bienvenue sur RegardTV.net - Toute l'actualité sur la TV numérique en Suisse romande
Partagez
Aller en bas
avatar
Ripley
Regard hypnotisé
Regard hypnotisé
Age : 43
Date d'inscription : 14/02/2010
Nombre de messages : 1046
Localisation : Sion
Opérateur TV : ESR - NetBox
Points : 4156
Réputation : 35

Plus de 5.1 sur Canal ?

le Jeu Avr 26 2018, 20:46
Bonsoir,

Quelqu’un peut-il me confirmer s’il y a toujours du 5.1 sur Canal et Canal Cinema svp ? Depuis hier je n’ai plus que du DD 2.0. Avant de demander à l’ESR j’aimerai contrôler chez vous.

Un grand merci.

_________________
Les goûts, les couleurs...
redge
Regard momifié
Regard momifié
Age : 45
Date d'inscription : 16/03/2010
Nombre de messages : 3468
Localisation : Genève ville
Opérateur TV : Swisscom TV + naxoo
Points : 7037
Réputation : 76
http://redge73.wordpress.com/

Re: Plus de 5.1 sur Canal ?

le Jeu Avr 26 2018, 22:42
Canal+ HD via Swisscom TV , 2x AC3 audio

bigfreestyler
Nouveau regard
Nouveau regard
Date d'inscription : 09/12/2010
Nombre de messages : 33
Localisation : Vaud
Opérateur TV : Cablecom, Citycable, Sateldranse (Net+), TNT Mont-Rond
Points : 2760
Réputation : 1

Re: Plus de 5.1 sur Canal ?

le Ven Avr 27 2018, 07:45
Réputation du message : 100% (1 vote)
Il existe du AC3 en 5.1 et en 2.0. L' AC3 présenté de cette manière ne permets pas d'identifié les canaux présents. Ça représente juste le codec utilisé.
avatar
Ripley
Regard hypnotisé
Regard hypnotisé
Age : 43
Date d'inscription : 14/02/2010
Nombre de messages : 1046
Localisation : Sion
Opérateur TV : ESR - NetBox
Points : 4156
Réputation : 35

Re: Plus de 5.1 sur Canal ?

le Ven Avr 27 2018, 10:20
Merci à vous.

Effectivement, ce n’est pas certain avec cette information.

Si quelqu’un pouvait me confirmer qu’il reçoit bien du 5.1 sur. Canal et Canal Cinema (les autres chaînes du groupe sont en DD 2.0 c’est normal). Pour vérifier il faut regarder sur un film ou une série récente).

Mais je penche plutôt sur un bug de l’ESR car ils viennent de faire des modifs sur les sous-titres donc ils ont peut-être trafiqué autre chose en faisant un downmix en 2.0.

_________________
Les goûts, les couleurs...
avatar
Patrick_B
Regard habitué
Regard habitué
Date d'inscription : 07/10/2007
Nombre de messages : 152
Points : 4103
Réputation : -5

Re: Plus de 5.1 sur Canal ?

le Dim Avr 29 2018, 02:36
Chez UPC

Canal+ possède 3 canaux.
Un canal audio pour la VF en Dolby Digital 5.1 à 384 Kbps
Un deuxième canal audio pour la VO également en Dolby Digital 5.1 à 384 Kbps
Et un troisième canal VF en Dolby Digital 2.0 à 192 Kbps

Code:
General
ID                                       : 63 (0x3F)
Complete name                            : M:\Nouveau6\Rendel.ts
Format                                   : BDAV
Format/Info                              : Blu-ray Video
File size                                : 115 MiB
Duration                                 : 1 min 28 s
Overall bit rate mode                    : Variable
Overall bit rate                         : 10.9 Mb/s
FileExtension_Invalid                    : m2ts mts ssif

Video
ID                                       : 144 (0x90)
Menu ID                                  : 9020 (0x233C)
Format                                   : AVC
Format/Info                              : Advanced Video Codec
Format profile                           : High@L4
Format settings                          : CABAC / 4 Ref Frames
Format settings, CABAC                   : Yes
Format settings, RefFrames               : 4 frames
Codec ID                                 : 27
Duration                                 : 1 min 28 s
Bit rate                                 : 9 499 kb/s
Maximum bit rate                         : 8 275 kb/s
Width                                    : 1 920 pixels
Height                                   : 1 080 pixels
Display aspect ratio                     : 16:9
Frame rate                               : 25.000 FPS
Standard                                 : Component
Color space                              : YUV
Chroma subsampling                       : 4:2:0
Bit depth                                : 8 bits
Scan type                                : MBAFF
Scan type, store method                  : Interleaved fields
Scan order                               : Top Field First
Bits/(Pixel*Frame)                       : 0.183
Stream size                              : 99.6 MiB (87%)
Color range                              : Limited
Color primaries                          : BT.709
Transfer characteristics                 : BT.709
Matrix coefficients                      : BT.709

Audio #1
ID                                       : 155 (0x9B)
Menu ID                                  : 9020 (0x233C)
Format                                   : AC-3
Format/Info                              : Audio Coding 3
Codec ID                                 : 6
Duration                                 : 1 min 28 s
Bit rate mode                            : Constant
Bit rate                                 : 384 kb/s
Channel(s)                               : 6 channels
Channel positions                        : Front: L C R, Side: L R, LFE
Sampling rate                            : 48.0 kHz
Frame rate                               : 31.250 FPS (1536 SPF)
Bit depth                                : 16 bits
Compression mode                         : Lossy
Delay relative to video                  : -1 s 114 ms
Stream size                              : 4.03 MiB (4%)
Language                                 : French
Service kind                             : Complete Main

Audio #2
ID                                       : 156 (0x9C)
Menu ID                                  : 9020 (0x233C)
Format                                   : AC-3
Format/Info                              : Audio Coding 3
Codec ID                                 : 6
Duration                                 : 1 min 28 s
Bit rate mode                            : Constant
Bit rate                                 : 384 kb/s
Channel(s)                               : 6 channels
Channel positions                        : Front: L C R, Side: L R, LFE
Sampling rate                            : 48.0 kHz
Frame rate                               : 31.250 FPS (1536 SPF)
Bit depth                                : 16 bits
Compression mode                         : Lossy
Delay relative to video                  : -1 s 114 ms
Stream size                              : 4.03 MiB (4%)
Language                                 : English
Service kind                             : Complete Main

Audio #3
ID                                       : 157 (0x9D)
Menu ID                                  : 9020 (0x233C)
Format                                   : AC-3
Format/Info                              : Audio Coding 3
Codec ID                                 : 6
Duration                                 : 1 min 28 s
Bit rate mode                            : Constant
Bit rate                                 : 192 kb/s
Channel(s)                               : 2 channels
Channel positions                        : Front: L R
Sampling rate                            : 48.0 kHz
Frame rate                               : 31.250 FPS (1536 SPF)
Bit depth                                : 16 bits
Compression mode                         : Lossy
Delay relative to video                  : -1 s 114 ms
Stream size                              : 2.02 MiB (2%)
Language                                 : qad
Service kind                             : Complete Main

Text #1
ID                                       : 165 (0xA5)
Menu ID                                  : 9020 (0x233C)
Format                                   : DVB Subtitle
Codec ID                                 : 6
Duration                                 : 1 min 12 s
Delay relative to video                  : 2 s 160 ms
Language                                 : French

Text #2
ID                                       : 166 (0xA6)
Menu ID                                  : 9020 (0x233C)
Format                                   : DVB Subtitle
Codec ID                                 : 6
Duration                                 : 1 min 26 s
Delay relative to video                  : 2 s 0 ms
Language                                 : French

Menu
ID                                       : 164 (0xA4)
Menu ID                                  : 9020 (0x233C)
Duration                                 : 1 min 28 s
List                                     : 144 (0x90) (AVC) / 155 (0x9B) (AC-3, French) / 156 (0x9C) (AC-3, English) / 157 (0x9D) (AC-3, qad) / 165 (0xA5) (DVB Subtitle, French) / 166 (0xA6) (DVB Subtitle, French)
Language                                 :  / French / English / qad / French / French
Service name                             : CANAL+ HD
Service provider                         : upc
Service type                             : advanced codec HD digital television

Télécharger l’extrait vidéo: https://2giga.link/d/wrjVyw


Pour Canal + Cinéma il y'a deux canaux audio.
Tous les deux en Dolby Digital 2.0 à 192Kbps

Code:
General
ID                                       : 179 (0xB3)
Complete name                            : M:\Nouveau6\Le cercle.ts
Format                                   : BDAV
Format/Info                              : Blu-ray Video
File size                                : 95.0 MiB
Duration                                 : 1 min 17 s
Overall bit rate mode                    : Variable
Overall bit rate                         : 10.2 Mb/s
FileExtension_Invalid                    : m2ts mts ssif

Video
ID                                       : 80 (0x50)
Menu ID                                  : 9224 (0x2408)
Format                                   : AVC
Format/Info                              : Advanced Video Codec
Format profile                           : High@L4
Format settings                          : CABAC / 4 Ref Frames
Format settings, CABAC                   : Yes
Format settings, RefFrames               : 4 frames
Codec ID                                 : 27
Duration                                 : 1 min 16 s
Bit rate                                 : 9 442 kb/s
Maximum bit rate                         : 8 275 kb/s
Width                                    : 1 920 pixels
Height                                   : 1 080 pixels
Display aspect ratio                     : 16:9
Frame rate                               : 25.000 FPS
Standard                                 : Component
Color space                              : YUV
Chroma subsampling                       : 4:2:0
Bit depth                                : 8 bits
Scan type                                : MBAFF
Scan type, store method                  : Interleaved fields
Scan order                               : Top Field First
Bits/(Pixel*Frame)                       : 0.182
Stream size                              : 86.4 MiB (91%)
Color range                              : Limited
Color primaries                          : BT.709
Transfer characteristics                 : BT.709
Matrix coefficients                      : BT.709

Audio #1
ID                                       : 91 (0x5B)
Menu ID                                  : 9224 (0x2408)
Format                                   : AC-3
Format/Info                              : Audio Coding 3
Codec ID                                 : 6
Duration                                 : 1 min 17 s
Bit rate mode                            : Constant
Bit rate                                 : 192 kb/s
Channel(s)                               : 2 channels
Channel positions                        : Front: L R
Sampling rate                            : 48.0 kHz
Frame rate                               : 31.250 FPS (1536 SPF)
Bit depth                                : 16 bits
Compression mode                         : Lossy
Delay relative to video                  : -882 ms
Stream size                              : 1.78 MiB (2%)
Language                                 : French
Service kind                             : Complete Main

Audio #2
ID                                       : 92 (0x5C)
Menu ID                                  : 9224 (0x2408)
Format                                   : AC-3
Format/Info                              : Audio Coding 3
Codec ID                                 : 6
Duration                                 : 1 min 17 s
Bit rate mode                            : Constant
Bit rate                                 : 192 kb/s
Channel(s)                               : 2 channels
Channel positions                        : Front: L R
Sampling rate                            : 48.0 kHz
Frame rate                               : 31.250 FPS (1536 SPF)
Bit depth                                : 16 bits
Compression mode                         : Lossy
Delay relative to video                  : -890 ms
Stream size                              : 1.78 MiB (2%)
Language                                 : English
Service kind                             : Complete Main

Menu
ID                                       : 100 (0x64)
Menu ID                                  : 9224 (0x2408)
Duration                                 : 1 min 17 s
List                                     : 80 (0x50) (AVC) / 91 (0x5B) (AC-3, French) / 92 (0x5C) (AC-3, English) / 101 (0x65) (DVB Subtitle) / 102 (0x66) (DVB Subtitle)
Language                                 :  / French / English
Service name                             : CANAL+ Cinéma HD
Service provider                         : upc
Service type                             : advanced codec HD digital television

Au passage, par rapport à la capture posté plus haut, je remarque que Canal+ sur UPC à un débit vidéo de 3 Mb/s plus élevé que le flux Swisscom. l'IPTV à ces limites
redge
Regard momifié
Regard momifié
Age : 45
Date d'inscription : 16/03/2010
Nombre de messages : 3468
Localisation : Genève ville
Opérateur TV : Swisscom TV + naxoo
Points : 7037
Réputation : 76
http://redge73.wordpress.com/

Re: Plus de 5.1 sur Canal ?

le Dim Avr 29 2018, 10:06
@bigfreestyler a écrit:Il existe du AC3 en 5.1 et en 2.0. L' AC3 présenté de cette manière ne permets pas d'identifié les canaux présents. Ça représente juste le codec utilisé.

Précision, selon le volume de donnée AC3 audio transporté, tu peux savoir par déduction si c'est AC3 DD2.0 ou DD5.1 avec dépendance du film diffusé car tous n'ont pas l'audio en Dolby Digital 5.1 en voici la preuve ci-dessous:








@Patrick_B a écrit:je remarque que Canal+ sur UPC à un débit vidéo de 3 Mb/s plus élevé que le flux Swisscom. l'IPTV à ces limites
Nuance, ce n'est pas du tout la limite de l'iptv mais de la contrainte de la majorité des raccordements xDSL au débit limité qui force Swisscom a opter pour un débit limité pour satisfaire la majorité et non la minorité.
Techniquement, Swisscom pourrait fournir 3 flux différents (2 SD/HD pour xDSL  et 2x FHD 1080p pour les clients fibre optique n'ayant pas de contrainte de parasites entre raccordements voisins en fibre !
avatar
Ripley
Regard hypnotisé
Regard hypnotisé
Age : 43
Date d'inscription : 14/02/2010
Nombre de messages : 1046
Localisation : Sion
Opérateur TV : ESR - NetBox
Points : 4156
Réputation : 35

Re: Plus de 5.1 sur Canal ?

le Dim Avr 29 2018, 11:58
Réputation du message : 100% (1 vote)
Merci à tous pour votre aide.

J’ai retrouvé mon topic ci-dessous que j’avais ouvert en juillet 2015 dans lequel j’annonçais que Canal Cinema était passé en 5.1... lors d’une modification touchant les sous-titres. Quelle coïncidence. Very Happy

Arrow https://www.regardtv.net/t6680-nouveautes

Je vais donc contacter l’ESR.

_________________
Les goûts, les couleurs...
avatar
Ripley
Regard hypnotisé
Regard hypnotisé
Age : 43
Date d'inscription : 14/02/2010
Nombre de messages : 1046
Localisation : Sion
Opérateur TV : ESR - NetBox
Points : 4156
Réputation : 35

Re: Plus de 5.1 sur Canal ?

le Mer Mai 02 2018, 17:45
Réputation du message : 100% (1 vote)
Alors ils m’ont répondu et tout est réparé en mieux qu’avant car il y a du 5.1 sur tout le bouquet (Family, Sport, Decale, Series également) même Cine+ Premier.  cheers

_________________
Les goûts, les couleurs...
avatar
Ripley
Regard hypnotisé
Regard hypnotisé
Age : 43
Date d'inscription : 14/02/2010
Nombre de messages : 1046
Localisation : Sion
Opérateur TV : ESR - NetBox
Points : 4156
Réputation : 35

Re: Plus de 5.1 sur Canal ?

le Sam Mai 05 2018, 16:54
Réputation du message : 100% (1 vote)
Ca me semblait bizarre aussi... Ils ont réussi à mettre un signal 5.1 mais en fait c’est du 2.0 à part sur Canal et Canal Cinema.

En fait l’ampli affiche tout le temps 5.1 mais le flux est le bon (2.0  sur les petites émissions et sur les chaînes Decale, Family etc).

On va dire que c’est un bug cosmétique.

_________________
Les goûts, les couleurs...
Revenir en haut
Permission de ce forum:
Vous ne pouvez pas répondre aux sujets dans ce forum